#TITLE:SDO Malasia;
#SUBTITLE:Blaze;
#ARTIST:Cornandbeans;
#TITLETRANSLIT:;
#SUBTITLETRANSLIT:;
#ARTISTTRANSLIT:;
#CREDIT:;
#BANNER:bn.jpg;
#BACKGROUND:bg.jpg;
#LYRICSPATH:;
#CDTITLE:cd.png;
#MUSIC:Blaze.mp3;
#OFFSET:-0.183;
#SAMPLESTART:34.469;
#SAMPLELENGTH:12.000;
#SELECTABLE:YES;
#BPMS:0.000=175.000;
#STOPS:;
#BGCHANGES:;
// cache tags:
#FIRSTBEAT:23.000;
#LASTBEAT:450.750;
#SONGFILENAME:Songs/Super Dancer Online/Blaze/Blaze.sm;
#HASMUSIC:1;
#HASBANNER:1;
#MUSICLENGTH:156.661;
// end cache tags

//---------------dance-single - ----------------
#NOTES:
     dance-single:
     :
     Hard:
     14:
     1.000,1.000,1.000,0.013,0.894,944.000,199.000,2.000,0.000,0.000:  // measure 1
0000
0000
0000
0000
,  // measure 2
0000
0000
0000
0000
,  // measure 3
0000
0000
0000
0000
,  // measure 4
0000
0000
0000
0000
,  // measure 5
0000
0000
0000
0000
,  // measure 6
0000
0000
0000
1000
,  // measure 7
1000
0001
0001
0100
,  // measure 8
0100
0010
0010
0100
,  // measure 9
0100
0001
0001
1000
,  // measure 10
1000
0001
0001
0100
,  // measure 11
0100
0010
0010
0100
,  // measure 12
0100
1000
1000
0001
,  // measure 13
0001
1000
1000
0010
,  // measure 14
0010
0000
0000
0000
0001
0000
0000
0000
0001
0000
0000
1000
0010
0000
0010
0000
,  // measure 15
1100
0001
0011
0100
1010
0010
1100
0001
,  // measure 16
0110
1000
0101
0001
0011
0100
1010
0001
,  // measure 17
0110
0100
1100
0010
0101
0001
0110
0100
,  // measure 18
1100
0010
0011
0100
1010
0001
1100
0001
,  // measure 19
0110
1000
0101
1000
0011
0100
1001
0010
,  // measure 20
0110
0010
1100
0001
0101
0100
1010
0100
,  // measure 21
0011
0100
1100
0001
0101
0010
0110
1000
,  // measure 22
0110
1000
0101
0001
0110
1000
1010
0002
,  // measure 23
0000
0000
0000
0013
0000
0000
0000
0100
0000
0000
1000
0100
0010
0001
0010
0100
,  // measure 24
1000
0100
0010
0001
0010
0100
1000
0100
0010
0001
1000
0100
0010
0000
0010
0100
,  // measure 25
1000
0000
1000
0100
0010
0001
1000
0100
0010
0001
0010
1000
0100
0001
0010
1000
,  // measure 26
0100
0001
0100
1000
0001
0010
0100
0010
0001
0100
1000
0100
0010
0001
0010
0100
,  // measure 27
0010
0001
0100
1000
0100
0010
0001
0010
0100
0010
1000
0100
0010
0001
0010
0100
,  // measure 28
1000
0100
0010
0001
0010
0100
1000
0100
0010
0001
0100
0010
0001
0000
0001
0010
,  // measure 29
0100
0000
0001
0010
0100
1000
0001
0010
0100
1000
0010
1000
0100
0001
0010
1000
,  // measure 30
0100
0001
0100
1000
0001
0010
0100
0010
0001
0100
1000
0100
0010
0001
0010
0100
,  // measure 31
0010
0001
0100
1000
0100
0010
0001
0010
0100
0010
1001
0100
0010
0001
0010
0100
,  // measure 32
1000
0100
0011
0000
0110
0000
1100
0000
0011
0000
1010
0100
1000
0100
0010
0001
,  // measure 33
0010
0100
0011
0000
1100
0000
0110
0000
0011
0000
1001
0100
0010
0100
1000
0010
,  // measure 34
0100
0001
0010
1000
0100
0010
0100
1000
0010
0100
0101
0000
0100
0000
1100
0000
,  // measure 35
0010
0000
0110
0000
0001
0000
0011
0000
0100
0000
1001
0100
0010
0001
0010
0100
,  // measure 36
1000
0000
0011
0000
0110
0000
1100
0000
0011
0000
1010
0100
1000
0100
0010
0100
,  // measure 37
0010
0001
1100
0000
0011
0000
1100
0000
0110
0000
1001
0100
0010
0100
1000
0010
,  // measure 38
0100
0001
0010
1000
0100
0010
0100
1000
0010
0100
0101
0000
0100
0000
1100
0000
,  // measure 39
0010
0000
0110
0000
0001
0000
0011
0000
0100
0000
1000
0100
0010
0001
0010
0100
,  // measure 40
1000
0100
0010
0001
0010
0100
1000
0100
0010
0001
1000
0100
0010
0000
0010
0100
,  // measure 41
1000
0000
1000
0100
0010
0001
1000
0100
0010
0001
0010
1000
0100
0001
0010
1000
,  // measure 42
0100
0001
0100
1000
0001
0010
0100
0010
0001
0100
1000
0100
0010
0001
0010
0100
,  // measure 43
0010
0001
0100
1000
0100
0010
0001
0010
1000
0100
0010
0001
0010
0100
1000
0100
,  // measure 44
0010
0001
0010
0100
1000
0100
0010
0001
0100
0010
0001
0000
0001
0010
0100
0000
,  // measure 45
0001
0010
0100
1000
0001
0010
0100
1000
0010
1000
0100
0001
0010
1000
0100
0001
,  // measure 46
0100
1000
0001
0010
0100
0010
0001
0100
1000
0100
0010
0001
0010
0100
0010
0001
,  // measure 47
0100
1000
0100
0010
0001
0010
1000
0000
0000
0000
0001
0000
0000
0000
0100
0000
,  // measure 48
0000
0001
0000
1000
0000
0001
0000
0010
,  // measure 49
0000
0100
0000
0001
0000
1000
0000
0010
,  // measure 50
0000
0100
0000
1000
0000
0100
0000
0001
,  // measure 51
0000
0100
0000
1100
0000
0101
0000
0011
,  // measure 52
0000
1010
0000
0011
0000
1010
0000
1100
,  // measure 53
0000
0101
0000
1100
0000
0101
0000
0011
,  // measure 54
0000
1010
0000
0011
0000
1010
0000
1100
,  // measure 55
0000
0101
0000
1100
0110
0011
0100
0110
,  // measure 56
1000
0011
1010
0101
0010
1010
0010
0011
,  // measure 57
0100
0101
0010
1010
0100
1100
0101
0011
,  // measure 58
1010
0110
0001
0110
0010
0101
1100
0011
,  // measure 59
0110
0101
1010
0110
0100
1010
0110
0011
,  // measure 60
1100
1010
0011
0110
1100
0011
1100
0101
,  // measure 61
1010
0110
1100
0011
0100
0101
0010
1100
,  // measure 62
0110
0001
0101
0011
0011
0110
0110
1100
,  // measure 63
1100
0011
0011
1010
0101
0011
0100
0110
,  // measure 64
1000
0011
1100
0101
0010
1010
0100
0011
,  // measure 65
0100
0101
0010
1010
0100
1100
0101
0011
,  // measure 66
1010
0110
0001
0110
0010
0101
1100
0011
,  // measure 67
0110
0101
1010
0110
0100
1010
0110
0011
,  // measure 68
1100
1010
0011
0110
1100
0011
1100
0101
,  // measure 69
1010
0110
1100
0011
0100
0101
0010
1100
,  // measure 70
0110
0001
1100
0101
0101
0110
0110
1010
,  // measure 71
1010
1100
1100
0011
1100
0000
0010
0100
,  // measure 72
0001
0000
0010
0000
0100
0001
2010
0000
,  // measure 73
0001
0100
0001
0100
,  // measure 74
0010
0001
0100
0010
0001
0000
0100
0000
,  // measure 75
0001
0010
0100
0001
0010
0001
0100
0000
,  // measure 76
0010
0001
0010
0100
0010
0100
0001
0010
,  // measure 77
0100
0001
0010
0001
0100
0010
0000
0100
,  // measure 78
0000
0000
0010
0000
0001
0000
0100
0100
,  // measure 79
0001
0001
0010
0010
0001
0001
3000
0000
,  // measure 80
0000
0000
0000
0001
0000
0000
0000
0100
0000
0000
1000
0100
0010
0001
0010
0100
,  // measure 81
1000
0100
0010
0001
0010
0100
1000
0100
0010
0001
1000
0100
0010
0000
0010
0100
,  // measure 82
1000
0000
1000
0100
0010
0001
1000
0100
0010
0001
0010
1000
0100
0001
0010
1000
,  // measure 83
0100
0001
0100
1000
0001
0010
0100
0010
0001
0100
1000
0100
0010
0001
0010
0100
,  // measure 84
0010
0001
0100
1000
0100
0010
0001
0010
0100
0010
1000
0100
0010
0001
0010
0100
,  // measure 85
1000
0100
0010
0001
0010
0100
1000
0100
0010
0001
0100
0010
0001
0000
0001
0010
,  // measure 86
0100
0000
0001
0010
0100
1000
0001
0010
0100
1000
0010
1000
0100
0001
0010
1000
,  // measure 87
0100
0001
0100
1000
0001
0010
0100
0010
0001
0100
1000
0100
0010
0001
0010
0100
,  // measure 88
0010
0001
0100
1000
0100
0010
0001
0010
0100
0010
0001
0010
0100
1000
0100
0010
,  // measure 89
0001
0010
0100
1000
0100
0010
0001
0010
0100
1000
0001
0010
0100
0000
0100
0010
,  // measure 90
0001
0000
0001
0010
0100
1000
0100
0010
0100
1000
0010
1000
0100
0001
0010
1000
,  // measure 91
0100
0001
0100
1000
0001
0010
0100
0010
0001
0100
1000
0100
0010
0001
0010
0100
,  // measure 92
0010
0001
0100
1000
0100
0010
0001
0010
0100
0010
1100
0000
0010
0000
1100
0000
,  // measure 93
0010
1100
0010
1100
0010
0011
0100
0011
,  // measure 94
0100
0011
0100
0011
0100
1010
0010
1010
,  // measure 95
0010
1010
0010
1010
0010
0101
1000
0101
,  // measure 96
1000
0101
1000
0101
0010
0100
0000
0000
,  // measure 97
0000
1000
0000
0000
0010
0000
0100
0000
,  // measure 98
0010
0000
0000
0000
0000
0100
0000
0000
0000
0000
0010
0000
0000
0000
0000
0100
,  // measure 99
0000
0010
0000
1000
0000
0000
0000
0010
,  // measure 100
0000
0000
0000
0000
1000
0000
0000
0000
0000
0000
0010
0000
0000
0000
0000
0000
0000
0000
0000
0000
0001
0000
0000
0010
0000
0000
0100
0000
0000
1000
0000
0000
,  // measure 101
0000
0000
0000
0000
0000
0000
0000
0000
1000
0000
0000
0100
0000
0000
0010
0000
0000
0001
0000
0000
0100
0000
0000
0000
0000
0000
0000
0000
0000
0000
0000
0000
,  // measure 102
1000
0010
0100
0010
,  // measure 103
0000
0000
0000
0100
0000
0000
0000
0000
0010
0000
0000
0000
0000
0100
0000
0010
,  // measure 104
0000
0000
0000
1000
0000
0000
0000
0000
0000
0000
0010
0000
0000
0000
0000
1000
,  // measure 105
0000
0000
0000
0000
0010
0000
0000
0000
0000
0000
0000
0000
1000
0000
0000
0100
0000
0000
0010
0000
0000
0100
0000
0000
0000
0000
0000
0000
0000
0000
0000
0000
,  // measure 106
0001
0000
0000
0010
0000
0000
0100
0000
0000
0010
0000
0000
1000
0000
0000
0000
0000
0000
0000
0000
0000
0000
0000
0000
1000
0000
0000
0000
0000
0000
0000
0000
,  // measure 107
0001
0000
0000
0000
0000
0000
0000
0000
0000
0000
0000
0010
0000
0000
0000
0000
0100
0000
0000
0000
0000
0000
0000
0000
0000
0000
0000
0000
0000
0000
0010
0000
,  // measure 108
0000
0000
0000
0000
1000
0000
0000
0000
0000
0100
0000
0010
0000
0000
0000
1000
,  // measure 109
0000
0000
0000
0000
0000
0000
0010
0000
0000
0000
0000
1000
0000
0000
0010
0000
,  // measure 110
0000
0000
0000
0000
0100
0000
0000
0010
0000
0000
0100
0000
0000
1000
0000
0000
0000
0000
0000
0000
0000
0000
0000
0000
0010
0000
0000
0001
0000
0000
0010
0000
,  // measure 111
0000
0100
0000
0000
0000
1000
0000
0000
0000
0000
0000
0000
0000
0000
0000
0000
1000
0000
0000
0000
0000
0000
0000
0000
0010
0000
0000
0000
0000
0000
0000
0000
,  // measure 112
0000
0100
0000
0000
0010
0000
0000
0000
0000
0000
0100
0000
0000
0000
0010
0000
,  // measure 113
0000
0000
0000
0100
0000
0000
0010
0000
0000
0000
0000
1000
0000
0000
0000
0000
;
